لطفا صبر کنید ...

 0 مورد
 قیمت کل : 0 ریال


تاریخ به روز رسانی آرشیو:
1398/09/18
  Jumanji Welcome To The Jungle 2017 3D Blu ray MVC Atmos 7 1 munk
  Planet Earth II 2016 COMPLETE 2Disc 2160p USA UHD BluRay HDR HEVC DTS-HD MA 5.1
  The Little Vampire 2017 1080p 3D NLD Blu ray AVC DTS HD 5 1
  The Son of Bigfoot (2017) Blu ray 3D Disc [3D/2D] BLUEBIRD
  The LEGO Ninjago Movie 2017 1080p 3D TWN Blu ray AVC DTS HD MA 5 1 TTG
  Cars 3 2017 3D BluRay 1080p AVC DTS HD MA7 1 MTeam
  Blade Runner 2049 2017 1080p 3D HYBRID Blu ray MVC TrueHD Atmos 7 1 munk
  Geostorm 2017 1080p 3D Blu ray AVC DTS HD MA 5 1
  Despicable Me 3 2017 3D BluRay 1080p AVC DTS HD MA 7 1 CHDBits
  The Mummy 2017 1080p 3D BluRay AVC Atmos TrueHD 7 1 JATO
  War for the Planet of the Apes 2017 1080p 3D CEE Blu ray AVC DTS HD MA 7 1
  Pirates of the Caribbean: Dead Men Tell No Tales 2017 1080p 3D GER Blu-ray AVC DTS-HD MA 7 1-CHECKMATE
  Transformers The Last Knight 2017 3D BluRay 1080p AVC Atmos TrueHD7 1 MTeam
  Wonder Woman 2017 1080p Custom 3D Blu ray AVC TrueHD Dolby Atmos 7 1
  King Arthur Legend of the Sword 2017 3D 1080p EUR Blu ray AVC DTS HD MA 5 1 CHDBits
  Ghost in the Shell 2017 Blu ray 3D EUR 1080p AVC Atmos 7 1 HDCLUB
  Die deutsche Nord und Ostkueste 3D (2013) Blu-ray 3D 1080p AVC DTS-HD 2.0
  The Boss Baby 2017 3D 1080p HKG Blu ray AVC DTS HD MA 7 1 CHDBit
  Smurfs The Lost Village 2017 3D TWN Blu Ray 1080p AVC DTS HD MA5 1 TTG
  Kong: Skull Island (2017) Blu-ray 3D EUR 1080p AVC DD5.1

آی دی تلگرام :

Hdmax@

شمارتماس در تلگرام :
09141007342 
 
پست الکترونیک ما :
 iran3dmax@gmail.com
t.vardin@tabriz.ir
 
شماره تماس :
09372821372
 
09141007342
 
  رهگیری سفارشات پستی
 

 
http://worldmax.ir/08395766165346165964.gif
 ***************
------------
 
بانک شهر :  بنام توحید وردینلو 
شماره حساب :
7002264748152 
 
شماره کارت :  6634-4215-0610-5047
------------------------- 
بانک سامان بنام توحید وردینلو
شماره حساب :
1- 1001129- 20- 9604
 
          شماره کارت (جاری):        
 
 6219-8610-3164-9360 
 ----------------------------------------------------
حساب بانک ملی- سیبا  بنام توحید وردینلو
شماره حساب :  0101071695000
 شماره کارت :2338-6147-9914-6037

----------------------------------------------------
بانک صادرات – سپهر بنام توحید وردینلو
شماره حساب : 0313200502009
شماره کارت : ---------

---------------------------------------------------
بانک ملت - جاری بنام توحید وردینلو
شماره حساب جاری  :  4142130725
شماره کارت : 9123-0168-3379-6104
--------------------------
بانک آینده  : بنام توحید وردینلو
 
6362-141-7144-3015
------------------------
بانک کشاورزی - جاری مهر بنام توحید وردینلو

شماره حساب جاری :  601348398
 شماره کارت :  6037701668986299
-------------------------------------------------
شماره شبا جهت حواله ساتنا بین بانکی :
  IR240120020000003150887788
 
جدیدترین عناوین منتخب بلوری سه بعدی :
http://worldmax.ir/up.gif
 
به زودی در اچ دی مکس
 
http://3dnews.ir/images/transformers-4-age-of-extinction-banner-poster-optimus-prime.jpg
Samsung Presents IMAX Triple Feature (2010) Blu-ray 3D 1080p AVC DTS-HD 5.1 42.93 GB
قیمت : 200000 ریال   

خشنودی :
75 % :
توضیحات :

مجموعه مستند سه بعدی فوق العاده زیبای آی مکس در چند بخش با کیفیت بلوری دیسک سه بعدی 1080 پی   محصولی منحصر بفرد برای دوستداران دنیای سه بعدی 

 DISC INFO:

Disc Title:     SAMSUNG_3D_BD
Disc Size:      46 091 620 767 bytes
Protection:     AACS
BD-Java:        Yes
Extras:         Blu-ray 3D
BDInfo:         0.5.6

PLAYLIST REPORT:

Name:                   00006.MPLS
Length:                 0:38:50 (h:m:s)
Size:                   9 302 065 152 bytes
Total Bitrate:          31,93 Mbps

VIDEO:

Codec                   Bitrate             Description    
-----                   -------             -----------    
MPEG-4 AVC Video        26305 kbps          1080p / 23,976 fps / 16:9 / High Profile 4.1

AUDIO:

Codec                           Language        Bitrate         Description    
-----                           --------        -------         -----------    
DTS-HD Master Audio             English         2152 kbps       5.1 / 48 kHz / 2152 kbps / 24-bit (DTS Core: 5.1 / 48 kHz / 1509 kbps / 24-bit)
Dolby Digital Audio             French          448 kbps        5.1 / 48 kHz / 448 kbps
Dolby Digital Audio             German          448 kbps        5.1 / 48 kHz / 448 kbps
Dolby Digital Audio             Korean          448 kbps        5.1 / 48 kHz / 448 kbps
Dolby Digital Audio             Spanish         448 kbps        5.1 / 48 kHz / 448 kbps

FILES:

Name            Time In         Length          Size            Total Bitrate  
----            -------         ------          ----            -------------  
00035.M2TS      0:00:00.000     0:19:38.135     4 869 126 144   33 063          
00037.M2TS      0:19:38.135     0:19:12.651     4 432 939 008   30 767

Name:                   00007.MPLS
Length:                 0:38:50 (h:m:s)
Size:                   9 302 065 152 bytes
Total Bitrate:          31,93 Mbps

VIDEO:

Codec                   Bitrate             Description    
-----                   -------             -----------    
MPEG-4 AVC Video        26305 kbps          1080p / 23,976 fps / 16:9 / High Profile 4.1

AUDIO:

Codec                           Language        Bitrate         Description    
-----                           --------        -------         -----------    
DTS-HD Master Audio             English         2152 kbps       5.1 / 48 kHz / 2152 kbps / 24-bit (DTS Core: 5.1 / 48 kHz / 1509 kbps / 24-bit)
Dolby Digital Audio             French          448 kbps        5.1 / 48 kHz / 448 kbps
Dolby Digital Audio             German          448 kbps        5.1 / 48 kHz / 448 kbps
Dolby Digital Audio             Korean          448 kbps        5.1 / 48 kHz / 448 kbps
Dolby Digital Audio             Spanish         448 kbps        5.1 / 48 kHz / 448 kbps

FILES:

Name            Time In         Length          Size            Total Bitrate  
----            -------         ------          ----            -------------  
00035.M2TS      0:00:00.000     0:19:38.135     4 869 126 144   33 063          
00037.M2TS      0:19:38.135     0:19:12.651     4 432 939 008   30 767

Name:                   00010.MPLS
Length:                 0:38:41 (h:m:s)
Size:                   9 356 998 656 bytes
Total Bitrate:          32,24 Mbps

VIDEO:

Codec                   Bitrate             Description    
-----                   -------             -----------    
MPEG-4 AVC Video        26802 kbps          1080p / 23,976 fps / 16:9 / High Profile 4.1

AUDIO:

Codec                           Language        Bitrate         Description    
-----                           --------        -------         -----------    
DTS-HD Master Audio             English         1954 kbps       5.1 / 48 kHz / 1954 kbps / 16-bit (DTS Core: 5.1 / 48 kHz / 1509 kbps / 16-bit)
Dolby Digital Audio             French          448 kbps        5.1 / 48 kHz / 448 kbps
Dolby Digital Audio             German          448 kbps        5.1 / 48 kHz / 448 kbps
Dolby Digital Audio             Korean          448 kbps        5.1 / 48 kHz / 448 kbps
Dolby Digital Audio             Spanish         448 kbps        5.1 / 48 kHz / 448 kbps / DN -4dB

FILES:

Name            Time In         Length          Size            Total Bitrate  
----            -------         ------          ----            -------------  
00053.M2TS      0:00:00.000     0:19:10.190     4 723 826 688   32 856          
00055.M2TS      0:19:10.190     0:19:31.628     4 633 171 968   31 636

Samsung Presents IMAX Triple Feature (2010) Blu-ray 3D 1080p AVC DTS-HD 5.1  42.93 GB

http://www.hdmax.ir/images/samsung.jpg

 

 

.:   صفحه اصلی  :   ثبت نام  :   فروشگاه  :   انجمن  :   راهنمای خرید  :   تماس با ما  :   درباره ما   :.
© 1398 تمامی حقوق این وب سایت نزد فروشگاه اچ دی مکس محفوظ است.
 
|  کاربر گرامی جهت استفاده بهینه از محصولات و خدمات سایت، ابتدا باید عضو سایت شوید. |  ورود عضو  |  ثبت عضو جدید  | خروج
رديف نام محصول تعداد ارزش ( ریال )
سبد شما خالی می باشد.
پست الکترونیک :
کلمه عبور :
ثبت نام | فراموشی کلمه عبور ؟  
جهت دریافت کلمه عبور، پست الکترونیک خود را وارد نمایید :
ورود به سایت